barra

Аудиофилы на форуме есть?

В теме 11 417 сообщений

Приехали обновки. Компания по распродаже SACD закончена, приехали последние диски. В теории я рассчитываю еще на сборник 2L Northern Timbre но ожидание затянулась, даже с учетом того, что продавец выслал "в догонку" еще один комплект.

 

Еще раз "Фантатстическая симфония" Берлиоза

 

_17cc6423939ca7ca8f41e5dfcad19bd8.jpg?no

 

_709e770df92056b7b8b65d46a54a0738.jpg?no

 

_906815a66eb448626d9a4cb483169287.jpg?no

 

Звук - стерео и 5.1 в 24/96. Издание бюджетное, звук неплохой. Пока это единственный имеющийся вариант в многоканале. Исполнение немного своеобразное - французский оркестр и дирижер американец. 

 

 

"Голубой поезд" - культовый джазовый альбом не требующий представления.

 

_64c5a942cfb8ae5852bbe992d89d584b.jpg?no

 

_7b0cb871454fa11558db93caad32934b.jpg?no

 

_34526c6c942603d18968b9c1f0ef18b1.jpg?no

 

Хоть альбом известный, в буклете воспоминания участников и небольшой музыкальный анализ. Почти ничего "технического". Звук - стерео 24/192, вероятно чтобы место на диске "не пропадало", кроме собственно PCM засунули еще и Dolby True HD и DTS HD Master Audio.  По сравнению с оцифровками у Classic Records (раз и два)  звук субъективно более резкий, хотя бонус-треки все перевешивают. Интересная фишка - когда треки заканчиваются, все начинается сначала. Возможно кому-то такое понравится)

 

 

И так, дойчеграм тоже решил выпускать блю-реи. Опыт общения с хайрезом от DG уже был - в коллекции были SACD с 5,7 и 9 симфонией Бетховена и Реквиемом Моцарта. Караян он и в Африке Караян, но звук мыльноватый, да и искусственное получение 5.1 из стерео по определению ничего хорошего не представляет.

 

Релиз этого года - "Планеты" Густава Хольста и "Так говорил Заратустра" - Рихарда Штрауса. После продажи SACD, "Заратустры..." у меня не было ни в каком виде, надо было восполнять.

 

_f2fed3534ac1c70e2af8ec13ffa45923.jpg?no

 

_dd82ae617705975ca05ef343f3661194.jpg?no

 

c975ac33ae429a209e52344b724315ff.jpg

 

_08ecefa44fda0c779032dfa178acc78b.jpg?no

 

_68f0a840d7dc5cb2a66115bc8f9dbab3.jpg?no

 

В данном случае дойчеграм не стал напяливать сову на глобус - квадрофоническая запись была сделана в 71-м на четырехдорожечную ленту. Таким образом звук - стерео и 4.0 в 24/192. Плюс 16/44.1 на CD  в качестве бедного родственника. В буклете ни слова про музыку, только про дирижера, оркестр (с ними у немцев как-то не было промахов) и про то, что подобное издание в квадро не последнее.

 

Звук приятно поразил, никакой замыленности, которую можно ожидать от DG, по качеству это лучший вариант "Планет" из всех трех. Исполнение своеобразное. Когда начинаешь слушать, кажется что дирижер  торопится, потом замечаешь, что некоторые моменты наоборот сыграны растянуто-вдумчиво. Значит еще одна, третья трактовка. По правде говоря "Заратустра..." при такой трактовке идет не так эффектно, что-ли. Нет того пафоса, который сразу же обрушивается на смотрящего "Одиссею 2001". 

 

 

  • Upvote 1

Поделиться сообщением


Ссылка на сообщение
Поделиться на другие сайты
19 минут назад, Öde ö сказал:

Вопрос звучит так, будто это Вы боитесь, что цифра зазвучит неотличимо от ненавистного Вами винила.

Чесслово, у меня нет никаких сильных чувств. Ну там боязни ненависти,  оставляю это другим. К винилу отношение тоже спокойно-взвешенное, знаю что он убог и все, и смысл убиваться вытаскивать из него что-то дорогущими башками и навернутыми фонокорректорами просто нулевой. Было дело - сравнивали звучание винила и хайреза на серьезной аппаратуре в 10-м. Сначала взяли Dead Can Dance. Винил - английский первопресс 80-х, который не хотел ни трещать ни что-то-там еще. Хайрез - SACD от MOFI. У хозяина был пульт, он просто дисташкой переключал входы на преде, а два альбома (Spleen And Ideal и мой любимый Within the realm of the Dying Sun) играли синхронно. Ху из ху я быстро догадался, при переключении на винил сразу возникали ощущения "а где деньги, Зина?". Где нормальная стереокартина, где прозрачность на верхах. Не было этого ничего. Да, панорама вроде как и широкая но абсолютно бестолковая, все в мыле. Потом послушали джаз - Cannonball Adderley - "Somethin' else". Винил - американец blue note, вроде перевыпуск 79-го или около того. Тоже звучал ровно и в прокрустовом ложе формата - относительно пристойно. Хайрез - первая оцифровка Classic Records - DVD-Video 24/96 2000 года. Разница не такая большая, но была. Прозрачности у винила почти не было, на 24/96 до тарелочек только что не дотронутся хотелось, на виниле они были где-то далеко и неестественно размыто и "телесности" не было совершенно. 

 

39 минут назад, Öde ö сказал:

 живостью звука. За счет того, что там никаких электрических процессов вообще.

А в чем живость заключается хотя бы субъективно? Какая может быть живость при полном отсутствии хотя бы стереокартины?

 

Поделиться сообщением


Ссылка на сообщение
Поделиться на другие сайты
6 минут назад, Xeon_sv сказал:

А в чем живость заключается хотя бы субъективно?

В похожести на живое звукоизвлечение.

 

7 минут назад, Xeon_sv сказал:

Какая может быть живость при полном отсутствии хотя бы стереокартины?

Закройте рукой, а лучше заткните берушей одно ухо. Послушайте окружающий мир. Неужели в таком монофоническом варианте он у Вас неживой и ненатуральный?

Мне не лень повторить для Вас еще раз: натуральность звука не зависит от количества каналов, АЧХ, ДД и прочих паспортных цифр.

  • Downvote 2

Поделиться сообщением


Ссылка на сообщение
Поделиться на другие сайты
2 минуты назад, Öde ö сказал:

Закройте рукой, а лучше заткните берушей одно ухо. Послушайте окружающий мир. Неужели в таком монофоническом варианте он у Вас неживой и ненатуральный?

Пробовал, точнее было заболевание из-за которого левое ухо не слышало совсем. Чувствовал себя очень подавленным, пока не вылечился. Про музыку - естественно ненатурально. Если я сам несколько лет играл на фано, то я на законном основании жду что слева будут низкие ноты, справа высокие. И это простейшее. Даже джазовое трио с нормальной стереокартиной слушается совсем по другому. Не говоря уже  хотя бы о камерном оркестре.

 

5 минут назад, Öde ö сказал:

Мне не лень повторить для Вас еще раз: натуральность звука не зависит от количества каналов

Зависит, начнем с фано. Если не будет стерео - нифига это уже не фано и я себя в этом в жизни не смогу убедить. Для оркестра стерео это даже меньше минимума. А максимум он просто отсутствует. Когда я в первый раз поставил в 2004-м многоканальную запись "Лебединого озера" - впечатлений было просто море. Когда вы сидите в концертном зале, вы получаете "возврат" сзади, с боков, сверху. Поэтому и нет максимума. Оркестр это ладно, а как же те же pink floyd? "Темная сторона луны" сводилась Парсонсом в первую очередь в квадро, уж только потом в стерео. Точно также с  Porcupine Tree, Стивеном Уилсоном и всеми командами до которых он смог дотянутся. 

 

9 минут назад, Öde ö сказал:

АЧХ

Если АЧХ будет неровной - ни о каких натуральных тембрах не может быть и речи. Тогда и рояль покажется чем угодно, только не роялем, также и с остальными живыми инструментами. 

 

12 минут назад, Öde ö сказал:

ДД

Если динамический диапазон недостаточен, про натуральность звучания тоже можно забыть. Да хоть взять и поставить те же "Картинки с Выставки". Одно дело когда тихо-тихо играют "Променад", и совсем другое, когда оркестр играет "Богатырские ворота" и еще когда колокол не имитирует фано а бьют в настоящий. Так что без динамического диапазона музыки тоже не может быть. 

Поделиться сообщением


Ссылка на сообщение
Поделиться на другие сайты

ну, как и обещался))))

 

~15A7EBZaq.jpg

Поделиться сообщением


Ссылка на сообщение
Поделиться на другие сайты
39 минут назад, Xeon_sv сказал:

Если динамический диапазон недостаточен, про натуральность звучания тоже можно забыть.

А кстати, проверял дд на приобретенных блюрейках?  Ой чойта я сомневаюсь, что там 12 будет.

Поделиться сообщением


Ссылка на сообщение
Поделиться на другие сайты
1 час назад, Delta213 сказал:

А кстати, проверял дд на приобретенных блюрейках?  Ой чойта я сомневаюсь, что там 12 будет.

У меня нет компьютерного привода. 12 это что, децибел, бит?

Поделиться сообщением


Ссылка на сообщение
Поделиться на другие сайты
8 часов назад, Delta213 сказал:

Про винил спорить не буду, а любые мафоны отстой по определению.

Чувствуется ты просто не слышал на хорошей ленте запись например с винила. Так бы не говорил.

  • Upvote 1

Поделиться сообщением


Ссылка на сообщение
Поделиться на другие сайты
6 минут назад, Shopen144 сказал:

Чувствуется ты просто не слышал на хорошей ленте запись например с винила. Так бы не говорил.

Как бэ слышал, даже сам писал на акаян 4000 с винила, но это так давно было.... 

Поделиться сообщением


Ссылка на сообщение
Поделиться на другие сайты
2 часа назад, ROCK сказал:

ну, как и обещался))))

 

~15A7EBZaq.jpg

Хороший диск)

Поделиться сообщением


Ссылка на сообщение
Поделиться на другие сайты
5 минут назад, Delta213 сказал:

Как бэ слышал, даже сам писал на акаян 4000 с винила, но это так давно было.... 

Я не говорю на че вы писали я говорю вы не писали на хорошую ленту. А хорошая лента- дорогая)

Поделиться сообщением


Ссылка на сообщение
Поделиться на другие сайты
1 час назад, Xeon_sv сказал:

У меня нет компьютерного привода. 12 это что, децибел, бит?

 

 

 

Вот мой Берлиоз, тот что :

691062040075.jpg

Берлиоз.png

Поделиться сообщением


Ссылка на сообщение
Поделиться на другие сайты
20 минут назад, Shopen144 сказал:

Я не говорю на че вы писали я говорю вы не писали на хорошую ленту. А хорошая лента- дорогая)

Хорошая лента была, тип10 свема и тасма, аж 525 метров, ах да, еще "школьная" была и тип 6, но это для самых отъявленных.

Тип 6 часто рвалась, склеивали ее уксусной эссенцией.

Это пожалуй все, что я помню положительного о магнитофонной записи :)

 

5019444984_0.jpg

Поделиться сообщением


Ссылка на сообщение
Поделиться на другие сайты
8 минут назад, Delta213 сказал:

Хорошая лента была, тип10 свема и тасма, аж 525 метров, ах да, еще "школьная" была и тип 6, но это для самых отъявленных.

Тип 6 часто рвалась, склеивали ее уксусной эссенцией.

Это пожалуй все, что я помню положительного о магнитофонной записи :)

 

5019444984_0.jpg

Это плохие ленты. Хорошая например эта

IMG_20180508_224805.jpg

Поделиться сообщением


Ссылка на сообщение
Поделиться на другие сайты

Тогда других не было, а акаян был и было их пару на город, один был в интерклубе теперешнего АГТУ, вот там я и писал, слушал правда на нежити-снежити, правда уже тогда твикнутую, хотя слов таких не было в обиходе.

snevet204s00.jpg

 

И еще ростов 101 был, но это еще раньше.

 

Изменено пользователем Delta213

Поделиться сообщением


Ссылка на сообщение
Поделиться на другие сайты

@Delta213 Надо будет поискать что-то из моего во флаках. Пока прогнал этот плагин по "картинкам с выставки" 

 

foobar2000 1.3.10 / Dynamic Range Meter 1.1.1
log date: 2018-07-03 21:54:16

--------------------------------------------------------------------------------
Analyzed: ? / HDAD2017
--------------------------------------------------------------------------------

DR         Peak         RMS     Duration Track
--------------------------------------------------------------------------------
DR12      -4.08 dB   -21.41 dB      1:31 01-L-R 24/192000
DR18       0.00 dB   -24.63 dB      2:43 02-L-R 24/192000
DR10     -24.03 dB   -37.19 dB      0:58 03-L-R 24/192000
DR12     -13.09 dB   -31.10 dB      4:29 04-L-R 24/192000
DR11      -7.19 dB   -23.22 dB      0:30 05-L-R 24/192000
DR14      -9.93 dB   -31.08 dB      1:15 06-L-R 24/192000
DR11      -2.31 dB   -21.54 dB      2:24 07-L-R 24/192000
DR10     -12.15 dB   -28.73 dB      0:46 08-L-R 24/192000
DR11     -10.83 dB   -31.49 dB      1:15 09-L-R 24/192000
DR12      -8.58 dB   -26.23 dB      2:19 10-L-R 24/192000
DR13      -4.44 dB   -23.10 dB      1:29 11-L-R 24/192000
DR13      -0.24 dB   -21.10 dB      2:02 12-L-R 24/192000
DR10     -23.39 dB   -38.27 dB      2:08 13-L-R 24/192000
DR14      -1.96 dB   -22.19 dB      3:46 14-L-R 24/192000
DR11      -1.01 dB   -16.57 dB      5:13 15-L-R 24/192000
DR13      -0.77 dB   -20.32 dB     11:15 16-L-R 24/192000
--------------------------------------------------------------------------------

Number of tracks:  16
Official DR value: DR12

Samplerate:        192000 Hz
Channels:          2
Bits per sample:   24
Bitrate:           9216 kbps
Codec:             MLP
================================================================================
 

C Респиги тяжело что-то на iso образе он вис, сконвертил в wav

 

foobar2000 1.3.10 / Dynamic Range Meter 1.1.1
log date: 2018-07-03 22:14:06

--------------------------------------------------------------------------------
Analyzed: ? / HDAD2015
--------------------------------------------------------------------------------

DR         Peak         RMS     Duration Track
--------------------------------------------------------------------------------
DR11      -0.57 dB   -16.74 dB      2:43 01-L-R 24/192000
DR12      -1.12 dB   -21.20 dB      6:20 02-L-R 24/192000
DR14      -8.11 dB   -30.41 dB      7:15 03-L-R 24/192000
DR10      -0.61 dB   -16.66 dB      4:24 04-L-R 24/192000
DR12     -12.58 dB   -32.25 dB      4:35 05-L-R 24/192000
DR11      -1.52 dB   -20.00 dB      2:47 06-L-R 24/192000
DR10      -0.81 dB   -14.92 dB      3:20 07-L-R 24/192000
DR14     -14.12 dB   -34.75 dB      5:11 08-L-R 24/192000
--------------------------------------------------------------------------------

Number of tracks:  8
Official DR value: DR12

Samplerate:        192000 Hz
Channels:          2
Bits per sample:   24
Bitrate:           9216 kbps
Codec:             PCM
================================================================================

 

Берлиоза (о котором писал выше) тоже пришлось сконвертить, получилось так

 

foobar2000 1.3.10 / Dynamic Range Meter 1.1.1
log date: 2018-07-03 22:32:30

--------------------------------------------------------------------------------
Analyzed: ? / HDAD2022
--------------------------------------------------------------------------------

DR         Peak         RMS     Duration Track
--------------------------------------------------------------------------------
DR15       0.00 dB   -22.87 dB     13:18 01-L-R 24/192000
DR13      -3.99 dB   -22.70 dB      5:50 02-L-R 24/192000
DR18      -2.88 dB   -28.55 dB     17:09 03-L-R 24/192000
DR14       0.00 dB   -19.05 dB      4:47 04-L-R 24/192000
DR13      -0.19 dB   -20.61 dB     10:22 05-L-R 24/192000
--------------------------------------------------------------------------------

Number of tracks:  5
Official DR value: DR15

Samplerate:        192000 Hz
Channels:          2
Bits per sample:   24
Bitrate:           9216 kbps
Codec:             PCM
================================================================================

 

 

Поделиться сообщением


Ссылка на сообщение
Поделиться на другие сайты

Норм, классика обычно всегда с хорошим ДД прописана.

Поделиться сообщением


Ссылка на сообщение
Поделиться на другие сайты

@Delta213 Я не нашел рипов с моих блюреев, могу еще для интереса подергать с тех DVD-A которые у меня есть. "Голубой поезд" можно скачать именно мой, но как  сконвертить во что-то BDMV структуру я не знаю, только что разве TSMuxer-ом.

 

Сибелиус - Lemminkainen suite: Night ride and Sunrise  тоже вроде неплохо

 

 

foobar2000 1.3.10 / Dynamic Range Meter 1.1.1
log date: 2018-07-03 22:46:24

--------------------------------------------------------------------------------
Analyzed: ? / ALBUM
--------------------------------------------------------------------------------

DR         Peak         RMS     Duration Track
--------------------------------------------------------------------------------
DR16      -0.10 dB   -22.56 dB     15:21 01-L-R 24/44100
DR15      -0.10 dB   -21.10 dB     15:12 02-L-R 24/44100
DR15     -12.08 dB   -33.18 dB      9:05 03-L-R 24/44100
DR16      -0.10 dB   -20.68 dB      6:50 04-L-R 24/44100
DR17      -2.57 dB   -26.20 dB     14:22 05-L-R 24/44100
--------------------------------------------------------------------------------

Number of tracks:  5
Official DR value: DR16

Samplerate:        44100 Hz
Channels:          2
Bits per sample:   24
Bitrate:           2117 kbps
Codec:             PCM
================================================================================

 

"Голубой поезд" это не мой блюрей - вторая оцифровка Classic Records 

 

 

foobar2000 1.3.10 / Dynamic Range Meter 1.1.1
log date: 2018-07-03 22:52:20

--------------------------------------------------------------------------------
Analyzed: John Coltrane / Blue Train
--------------------------------------------------------------------------------

DR         Peak         RMS     Duration Track
--------------------------------------------------------------------------------
DR13      -1.82 dB   -17.71 dB     10:44 01-Blue Train
DR13      -0.60 dB   -16.79 dB      9:12 02-Moment's Notice
DR13      -0.48 dB   -15.78 dB      7:15 03-Locomotion
DR14      -2.09 dB   -18.41 dB      7:58 04-I'm Old Fashioned
DR12      -1.07 dB   -16.37 dB      7:08 05-Lazy Bird
--------------------------------------------------------------------------------

Number of tracks:  5
Official DR value: DR13

Samplerate:        192000 Hz
Channels:          2
Bits per sample:   24
Bitrate:           5746 kbps
Codec:             FLAC
================================================================================

 

 

 

 

  • Downvote 1

Поделиться сообщением


Ссылка на сообщение
Поделиться на другие сайты

Помучал еще несколько DVD-Audio с классикой

 

Шостакович - Гамлет

 

foobar2000 1.3.10 / Dynamic Range Meter 1.1.1
log date: 2018-07-04 00:40:52

--------------------------------------------------------------------------------
Analyzed: ? / HAMLET
--------------------------------------------------------------------------------

DR         Peak         RMS     Duration Track
--------------------------------------------------------------------------------
DR14      -0.88 dB   -26.43 dB      2:03 01-Lf-Rf-Ls-Rs 24/48000 + C-LFE 24/48000
DR15      -0.58 dB   -19.23 dB      0:47 02-Lf-Rf-Ls-Rs 24/48000 + C-LFE 24/48000
DR10      -3.41 dB   -20.31 dB      0:15 03-Lf-Rf-Ls-Rs 24/48000 + C-LFE 24/48000
DR15      -1.76 dB   -27.24 dB      3:16 04-Lf-Rf-Ls-Rs 24/48000 + C-LFE 24/48000
DR14      -8.12 dB   -31.85 dB      2:22 05-Lf-Rf-Ls-Rs 24/48000 + C-LFE 24/48000
DR15      -0.49 dB   -20.44 dB      1:14 06-Lf-Rf-Ls-Rs 24/48000 + C-LFE 24/48000
DR14      -0.35 dB   -24.63 dB      6:42 07-Lf-Rf-Ls-Rs 24/48000 + C-LFE 24/48000
DR20      -0.44 dB   -32.95 dB      5:39 08-Lf-Rf-Ls-Rs 24/48000 + C-LFE 24/48000
DR11     -12.41 dB   -31.98 dB      1:00 09-Lf-Rf-Ls-Rs 24/48000 + C-LFE 24/48000
DR14      -0.84 dB   -20.58 dB      2:03 10-Lf-Rf-Ls-Rs 24/48000 + C-LFE 24/48000
DR13     -16.44 dB   -38.26 dB      1:34 11-Lf-Rf-Ls-Rs 24/48000 + C-LFE 24/48000
DR14     -14.22 dB   -37.67 dB      3:36 12-Lf-Rf-Ls-Rs 24/48000 + C-LFE 24/48000
DR11      -6.74 dB   -23.15 dB      0:14 13-Lf-Rf-Ls-Rs 24/48000 + C-LFE 24/48000
DR12      -9.82 dB   -30.04 dB      2:28 14-Lf-Rf-Ls-Rs 24/48000 + C-LFE 24/48000
DR10     -14.32 dB   -31.65 dB      0:20 15-Lf-Rf-Ls-Rs 24/48000 + C-LFE 24/48000
DR16      -0.43 dB   -25.96 dB      6:21 16-Lf-Rf-Ls-Rs 24/48000 + C-LFE 24/48000
DR11      -7.12 dB   -28.38 dB      0:47 17-Lf-Rf-Ls-Rs 24/48000 + C-LFE 24/48000
DR14     -15.87 dB   -39.87 dB      3:40 18-Lf-Rf-Ls-Rs 24/48000 + C-LFE 24/48000
DR12     -14.65 dB   -36.90 dB      2:33 19-Lf-Rf-Ls-Rs 24/48000 + C-LFE 24/48000
DR16     -10.74 dB   -36.80 dB      3:39 20-Lf-Rf-Ls-Rs 24/48000 + C-LFE 24/48000
DR14      -6.00 dB   -31.87 dB      3:14 21-Lf-Rf-Ls-Rs 24/48000 + C-LFE 24/48000
DR21      -4.89 dB   -37.85 dB      2:02 22-Lf-Rf-Ls-Rs 24/48000 + C-LFE 24/48000
DR14      -0.50 dB   -21.08 dB      6:33 23-Lf-Rf-Ls-Rs 24/48000 + C-LFE 24/48000
--------------------------------------------------------------------------------

Number of tracks:  23
Official DR value: DR14

Samplerate:        48000 Hz
Channels:          6
Bits per sample:   24
Bitrate:           6912 kbps
Codec:             MLP
================================================================================
 

DR20 и DR21 - вроде неплохо

 

Чайковский - Лебединое Озеро (не всё)

 

foobar2000 1.3.10 / Dynamic Range Meter 1.1.1
log date: 2018-07-04 00:30:04

--------------------------------------------------------------------------------
Analyzed: ? / TCHAIKOVSKY
--------------------------------------------------------------------------------

DR         Peak         RMS     Duration Track
--------------------------------------------------------------------------------
DR15      -0.93 dB   -23.72 dB      2:22 01-Lf-Rf-Ls-Rs 24/48000 + C-LFE 24/48000
DR13      -0.56 dB   -21.16 dB      3:10 02-Lf-Rf-Ls-Rs 24/48000 + C-LFE 24/48000
DR14      -0.41 dB   -23.04 dB      6:41 03-Lf-Rf-Ls-Rs 24/48000 + C-LFE 24/48000
DR14      -0.44 dB   -19.68 dB      1:54 04-Lf-Rf-Ls-Rs 24/48000 + C-LFE 24/48000
DR13      -2.33 dB   -25.06 dB      1:52 05-Lf-Rf-Ls-Rs 24/48000 + C-LFE 24/48000
DR13      -3.07 dB   -23.78 dB      2:17 06-Lf-Rf-Ls-Rs 24/48000 + C-LFE 24/48000
DR14      -3.49 dB   -26.34 dB      5:21 07-Lf-Rf-Ls-Rs 24/48000 + C-LFE 24/48000
DR14      -7.92 dB   -31.68 dB      2:14 08-Lf-Rf-Ls-Rs 24/48000 + C-LFE 24/48000
DR12      -6.51 dB   -30.76 dB      1:40 09-Lf-Rf-Ls-Rs 24/48000 + C-LFE 24/48000
DR14      -7.92 dB   -31.56 dB      2:10 10-Lf-Rf-Ls-Rs 24/48000 + C-LFE 24/48000
DR8       -4.86 dB   -36.15 dB      1:34 11-Lf-Rf-Ls-Rs 24/48000 + C-LFE 24/48000
DR17      -5.91 dB   -30.80 dB      7:29 12-Lf-Rf-Ls-Rs 24/48000 + C-LFE 24/48000
DR12      -3.63 dB   -24.79 dB      1:32 13-Lf-Rf-Ls-Rs 24/48000 + C-LFE 24/48000
DR12      -0.09 dB   -22.31 dB      2:13 14-Lf-Rf-Ls-Rs 24/48000 + C-LFE 24/48000
DR13      -1.50 dB   -23.52 dB      2:19 15-Lf-Rf-Ls-Rs 24/48000 + C-LFE 24/48000
DR14      -0.86 dB   -21.58 dB      2:40 16-Lf-Rf-Ls-Rs 24/48000 + C-LFE 24/48000
DR14      -0.46 dB   -25.97 dB      3:24 17-Lf-Rf-Ls-Rs 24/48000 + C-LFE 24/48000
DR13      -0.72 dB   -27.21 dB      3:52 18-Lf-Rf-Ls-Rs 24/48000 + C-LFE 24/48000
DR13      -7.32 dB   -25.71 dB      0:44 19-Lf-Rf-Ls-Rs 24/48000 + C-LFE 24/48000
DR13      -8.68 dB   -31.53 dB      0:48 20-Lf-Rf-Ls-Rs 24/48000 + C-LFE 24/48000
DR14      -3.31 dB   -26.20 dB      2:27 21-Lf-Rf-Ls-Rs 24/48000 + C-LFE 24/48000
DR15      -0.82 dB   -24.03 dB      3:23 22-Lf-Rf-Ls-Rs 24/48000 + C-LFE 24/48000
DR14      -1.15 dB   -25.31 dB      2:31 23-Lf-Rf-Ls-Rs 24/48000 + C-LFE 24/48000
DR13      -2.88 dB   -23.50 dB      2:18 24-Lf-Rf-Ls-Rs 24/48000 + C-LFE 24/48000
DR13      -0.21 dB   -20.94 dB      3:34 25-Lf-Rf-Ls-Rs 24/48000 + C-LFE 24/48000
DR13       0.00 dB   -21.23 dB      3:37 26-Lf-Rf-Ls-Rs 24/48000 + C-LFE 24/48000
DR16      -5.38 dB   -30.80 dB      1:57 27-Lf-Rf-Ls-Rs 24/48000 + C-LFE 24/48000
DR13      -6.99 dB   -29.63 dB      2:15 28-Lf-Rf-Ls-Rs 24/48000 + C-LFE 24/48000
DR17      -4.79 dB   -32.24 dB      3:49 29-Lf-Rf-Ls-Rs 24/48000 + C-LFE 24/48000
DR15      -0.18 dB   -23.23 dB      3:06 30-Lf-Rf-Ls-Rs 24/48000 + C-LFE 24/48000
DR15      -0.15 dB   -20.41 dB      6:36 31-Lf-Rf-Ls-Rs 24/48000 + C-LFE 24/48000
--------------------------------------------------------------------------------

Number of tracks:  31
Official DR value: DR14

Samplerate:        48000 Hz
Channels:          6
Bits per sample:   24
Bitrate:           6912 kbps
Codec:             MLP
================================================================================
 

Еще немного Чайковского от TELARC-а

 

foobar2000 1.3.10 / Dynamic Range Meter 1.1.1
log date: 2018-07-04 00:06:20

--------------------------------------------------------------------------------
Analyzed: ? / DVDVolume
--------------------------------------------------------------------------------

DR         Peak         RMS     Duration Track
--------------------------------------------------------------------------------
DR19      -0.08 dB   -27.26 dB     15:48 01-Lf-Rf-Ls-Rs 24/88200 + C-LFE 24/88200
DR13      -7.18 dB   -28.57 dB      4:37 02-Lf-Rf-Ls-Rs 24/88200 + C-LFE 24/88200
DR15      -1.74 dB   -28.49 dB     15:47 03-Lf-Rf-Ls-Rs 24/88200 + C-LFE 24/88200
DR14      -1.86 dB   -25.18 dB      9:38 04-Lf-Rf-Ls-Rs 24/88200 + C-LFE 24/88200
DR14     -10.69 dB   -33.17 dB      6:46 05-Lf-Rf-Ls-Rs 24/88200 + C-LFE 24/88200
DR13      -2.19 dB   -23.80 dB      4:47 06-Lf-Rf-Ls-Rs 24/88200 + C-LFE 24/88200
DR15      -1.58 dB   -28.23 dB      4:20 07-Lf-Rf-Ls-Rs 24/88200 + C-LFE 24/88200
--------------------------------------------------------------------------------

Number of tracks:  7
Official DR value: DR15

Samplerate:        88200 Hz
Channels:          6
Bits per sample:   24
Bitrate:           12701 kbps
Codec:             MLP
================================================================================

 

Чайковский - Концерты для фортепиано с оркестром №1 и №3

 

foobar2000 1.3.10 / Dynamic Range Meter 1.1.1
log date: 2018-07-03 23:50:45

--------------------------------------------------------------------------------
Analyzed: ? / TCHAIKOVSKY
--------------------------------------------------------------------------------

DR         Peak         RMS     Duration Track
--------------------------------------------------------------------------------
DR15      -0.15 dB   -23.84 dB     19:41 01-Lf-Rf-Ls-Rs 24/48000 + C-LFE 24/48000
DR15      -0.09 dB   -27.76 dB      6:42 02-Lf-Rf-Ls-Rs 24/48000 + C-LFE 24/48000
DR15      -0.18 dB   -22.77 dB      6:57 03-Lf-Rf-Ls-Rs 24/48000 + C-LFE 24/48000
DR15      -0.30 dB   -23.65 dB     16:00 04-Lf-Rf-Ls-Rs 24/48000 + C-LFE 24/48000
DR14      -5.31 dB   -27.72 dB     11:12 05-Lf-Rf-Ls-Rs 24/48000 + C-LFE 24/48000
DR14      -0.29 dB   -20.20 dB      8:34 06-Lf-Rf-Ls-Rs 24/48000 + C-LFE 24/48000
--------------------------------------------------------------------------------

Number of tracks:  6
Official DR value: DR15

Samplerate:        48000 Hz
Channels:          6
Bits per sample:   24
Bitrate:           6912 kbps
Codec:             MLP
================================================================================

 

Григ - Концерт для фортепиано с оркестром и симфонические танцы

 

foobar2000 1.3.10 / Dynamic Range Meter 1.1.1
log date: 2018-07-03 23:38:11

--------------------------------------------------------------------------------
Analyzed: ? / PIANO_CONCERTOS
--------------------------------------------------------------------------------

DR         Peak         RMS     Duration Track
--------------------------------------------------------------------------------
DR14      -3.20 dB   -24.65 dB     11:10 01-Lf-Rf-Ls-Rs 24/44100 + C-LFE 24/44100
DR16      -3.33 dB   -28.29 dB     12:53 02-Lf-Rf-Ls-Rs 24/44100 + C-LFE 24/44100
DR14      -7.54 dB   -31.85 dB      6:15 03-Lf-Rf-Ls-Rs 24/44100 + C-LFE 24/44100
DR14      -3.20 dB   -26.20 dB     10:18 04-Lf-Rf-Ls-Rs 24/44100 + C-LFE 24/44100
DR13      -3.96 dB   -26.36 dB      7:28 05-Lf-Rf-Ls-Rs 24/44100 + C-LFE 24/44100
DR15      -6.25 dB   -32.79 dB      6:30 06-Lf-Rf-Ls-Rs 24/44100 + C-LFE 24/44100
DR13      -4.59 dB   -27.65 dB      5:56 07-Lf-Rf-Ls-Rs 24/44100 + C-LFE 24/44100
DR14      -3.20 dB   -25.62 dB     11:14 08-Lf-Rf-Ls-Rs 24/44100 + C-LFE 24/44100

--------------------------------------------------------------------------------

Number of tracks:  8
Official DR value: DR13

Samplerate:        44100 Hz
Channels:          6
Bits per sample:   24
Bitrate:           6350 kbps
Codec:             MLP
================================================================================

 

 

  • Downvote 1

Поделиться сообщением


Ссылка на сообщение
Поделиться на другие сайты
9 часов назад, Xeon_sv сказал:

Помучал еще несколько DVD-Audio с классикой

 

 

 

Самый низкий ДР на моих это у чикаго5, 6 или 7 в среднем, и это на 24/192 :)

 

Изменено пользователем Delta213

Поделиться сообщением


Ссылка на сообщение
Поделиться на другие сайты
33 минуты назад, Delta213 сказал:

Самый низкий ДР на моих это у чикаго5, 6 или 7 в среднем, и это на 24/192 :)

Бывает. У меня на последнем альбоме florence and the machine - 6. Но, блин, 24/96. Enya - Dark sky island - 5. Так что "не все 24 бита одинаково полезны"@tm

 

Смог расковырять обычные DVD-Video 24/96, DVD Audio Extractor мне в этом любезно помог. Было интересно помучать оцифровки Classic Records первого поколения - 1998-2000 годов, еще до тех времен когда они не дорвались до DVD-Audio и 35мм пленок Everest.

 

Прокофьев - Александр Невский и Мусоргский - Шахерезада

 

foobar2000 1.3.10 / Dynamic Range Meter 1.1.1
log date: 2018-07-04 10:16:19

--------------------------------------------------------------------------------
Analyzed: Unknown Artist / Unknown Album
--------------------------------------------------------------------------------

DR         Peak         RMS     Duration Track
--------------------------------------------------------------------------------
DR15     -13.25 dB   -35.16 dB      3:26 01-Chapter 01
DR13     -14.57 dB   -33.41 dB      3:28 02-Chapter 02
DR15      -5.78 dB   -26.66 dB      6:40 03-Chapter 03
DR14      -5.58 dB   -26.04 dB      2:09 04-Chapter 04
DR17      -1.07 dB   -24.10 dB     12:25 05-Chapter 05
DR12     -15.22 dB   -34.46 dB      5:50 06-Chapter 06
DR13      -2.83 dB   -21.82 dB      4:47 07-Chapter 07
DR12      -6.40 dB   -24.49 dB     11:22 08-Chapter 08
DR15      -2.37 dB   -26.54 dB     12:46 09-Chapter 09
DR17      -0.25 dB   -25.60 dB     12:43 10-Chapter 10
DR15       0.00 dB   -21.36 dB     12:42 11-Chapter 11
--------------------------------------------------------------------------------

Number of tracks:  11
Official DR value: DR14

Samplerate:        96000 Hz
Channels:          2
Bits per sample:   24
Bitrate:           2455 kbps
Codec:             FLAC
================================================================================

 

Шахерезада последние 4 трека. Как они "поцеловали" 0 дб - вообще красиво. ИМХО, показатель что халтуры при оцифровке не было.

 

 

Мусоргский  - Картинки с Выставки, Ночь на Лысой Горе и Хольст - Планеты

 

foobar2000 1.3.10 / Dynamic Range Meter 1.1.1
log date: 2018-07-04 10:07:10

--------------------------------------------------------------------------------
Analyzed: Unknown Artist / Unknown Album
--------------------------------------------------------------------------------

DR         Peak         RMS     Duration Track
--------------------------------------------------------------------------------
DR18      -5.09 dB   -31.19 dB     15:20 01-Chapter 01
DR16      -7.20 dB   -30.25 dB      7:21 02-Chapter 02
DR15      -0.77 dB   -23.18 dB      8:47 03-Chapter 03
DR16      -2.75 dB   -26.02 dB     11:15 04-Chapter 04
DR14      -3.36 dB   -22.66 dB      7:11 05-Chapter 05
DR15     -17.39 dB   -38.88 dB      7:44 06-Chapter 06
DR16      -8.70 dB   -32.20 dB      4:09 07-Chapter 07
DR14      -3.41 dB   -23.85 dB      7:51 08-Chapter 08
DR16      -6.47 dB   -30.71 dB      9:22 09-Chapter 09
DR14      -5.81 dB   -25.25 dB      5:54 10-Chapter 10
DR12     -21.46 dB   -38.42 dB      7:34 11-Chapter 11
--------------------------------------------------------------------------------

Number of tracks:  11
Official DR value: DR15

Samplerate:        96000 Hz
Channels:          2
Bits per sample:   24
Bitrate:           2205 kbps
Codec:             FLAC
================================================================================

 

Картинки с выставки упиханы в первые три трека, четвертый - ночь на лысой горе, остальное - планеты

 

 

ЗЫ а что вчера было ночью делать, когда англичане и колумбийцы делали вид что играли в футбол. 

 

  • Downvote 1

Поделиться сообщением


Ссылка на сообщение
Поделиться на другие сайты
22 часа назад, Öde ö сказал:

 

 

хорошее кино...нормальная почти настройка...спад на верхах - возможно  лим   ослаб.

давай продолжение.....на   вход - генератор и  прогон   на  нуле по всему диапазону...или  на  минус  6  хотя бы...

Поделиться сообщением


Ссылка на сообщение
Поделиться на другие сайты
1 час назад, qwedsa75 сказал:

хорошее кино...нормальная почти настройка...спад на верхах - возможно  лим   ослаб.

давай продолжение.....на   вход - генератор и  прогон   на  нуле по всему диапазону...или  на  минус  6  хотя бы...

в режиме  сквозной   канал..... 

Поделиться сообщением


Ссылка на сообщение
Поделиться на другие сайты

Для публикации сообщений создайте учётную запись или авторизуйтесь

Вы должны быть пользователем, чтобы оставить комментарий

Создать учетную запись

Зарегистрируйте новую учётную запись в нашем сообществе. Это очень просто!

Регистрация нового пользователя

Войти

Уже есть аккаунт? Войти в систему.

Войти